前往內容


要用VIZIO E系列播放影片的缺點及解決教學


因為剛入手了這台液晶電視,預算全花完,沒法再敗撥放器或HTPC,而且看影片的需求也非經常性,所以這台內建USB播放功能的電視剛好符合預算及要求,購買前也爬了不少文,發現撥放都沒啥問題,機子到手後當然要測試一下

A.500M RM組:測試一切OK,跟電腦一樣
B.3G 720P MKV組:檔案及字幕檔直接插入電視就OK,當然畫質提升,雖不支援多重音軌或字幕,但字幕可改大小,如果你是這組,恭喜,選到CP好物
C.10G 1080P MKV組:這也是我希望的,畢竟電視解析度1080幹嘛還看720,滿心期待測試後,簡單講,完全不能看!不過是怎麼個不能看法呢

缺點1:USB硬體格式太低
1080P單檔案都超過6G,而電視USB只支援FAT32,也就是單檔不能超過4G,這大家都知道沒關係,切割檔案就好,能克服
缺點2:聲音格式不支援
確實有些人反映說有影沒聲,我也遇到了
缺點3:影像格式不支援
這就奇了,其他的MKV都好好的,也都符合說明書內血的AVC H264,難道解析度高就不能看
缺點4:沒有字幕
廢話,根本不能看,哪來的字幕

過年期間,也沒客服可以解決,只好四處網遊,沒想到居然真的解決了,不過是在意想不到的地方找到的:蘋果【IPAD】!原來IPAD用戶如不安裝其他撥放軟體,也都無法撥放主流的1080P影片,問題是蘋果能加裝軟體,電視?想都別想!幸好IPAD也有人不願花錢加裝軟體,一定要用內建功能來達成目的,意外造福了我們電視使用者,以下一步一步教你來用電視USB來看高清

1.使用mkvmerge GUI來切割MKV檔
這是因為FAT32隨身碟單檔只能支援到4G,其實mkvmerge GUI還能內鉗字幕,不過你就不用麻煩了,電視是看不到的




2.使用mkvavi2mp4轉換聲音及影片格式
先說一下目前1080P影片主流就是
影像:AVC H264編碼
聲音:DTS(杜比劇院) 編碼
字幕:另外的SRT字幕檔
造成聲音錯誤的原因,是這台電視支援AAC及AC3,遇到DTS就沒辦法了,只好略為降級成AAC的聲音,影像雖都是X264,但就是不支援?原來H264內有個PROFILE LEVEL決定運算方式,這電視只到@L3.1的規格,較新的@L4.1才是目前高清常用的(藍光本身也是4.1),mkvavi2mp4並未重新編碼(那要10幾個小時)而用欺騙的方式,將4.1版改為3.1版,這樣IPAD或你的電視就會改變運算方式成功撥放,不過完全不影響畫質。然後mkvavi2mp4會自動把3.1的影像及AAC的聲音打包為一個MP4檔案,這時你已經可以順利在電視看1080P的影片了




3.使用記事本及SRTEDIT建立字幕
如果有使用字幕須要,那就先用記事本開啟原本的SRT字幕檔,查看轉好的檔案(MP4檔)時間,依照每個影片時間,在空白記事本複製貼上相對應的字幕並建立新的SRT,要注意字幕檔名要與影片檔名一樣中英不拘。此時還不能觀看,因為字幕的時間是舊的,所以開啟SRTEDIT來處理。編輯完試看一下影片與字幕同步性,不滿意再用SRTEDIT加快或減慢字幕出現時間(步驟三,時:分:秒,毫秒)






最後,全部複製到隨身碟,插入電視,感動啊~~~耗費許多時間終於搞定他(8G切割約需7分+轉換格式約15分)也來說說實際心得,因為檔案分割,檔案與檔案切換時會像選台一樣黑一下;另外字幕是可透過電視調整大小的,不過那個位置還是不夠底下。其實這樣玩算是硬把電視USB撐出來播放,不過幸好流暢度都沒問題。不免抱怨一下,LG這方面就做得比較好(好一點點,好在官網都據實以告),支援NTFS格式,讓你不用切割MKV,當然就不用調整字幕,影像H264@4.1可用但有可能造成延遲,DTS音效則是都不支援,還是要轉檔。所以要用電視播放影片,不是犧牲畫質看720P的,就是勤勞點才有1080P,不然就買台播放機,但誰知道H264@5.1或HD音效會不會成未來的主流,HPTC才是王道啊!

吼~那我勒??~~~D. 40G 藍光組的怒吼~~





樓主真是熱心+有耐心,還花那麼多時間製作教學~
看影片其實可以更輕鬆的...如果有預算的話。

現在有的多媒體播放機做的到BD+DVD+CD+硬碟播放+網路播放等功能合一了,操作性和穩定性都不錯。
只要電影家用光碟還是BD格式的話,H264與現在的HD音效還是可以玩好幾年的。
水啦~~感謝大大~之前還看苦惱說~1個影片檔超過4G要怎半

之後還是乖乖接電腦來觀看~大大這招真是棒XD~~
請問有哪一台可以支援NTFS而且單檔大於 2GB呢?
我的E420VL-TW,用USB看影片,會在1GB的位置當機,

目前是將影片分割(小於1GB)來解決。
LG可以NTFS啊

分割大小:建議可以分割成4200M
因為原本DTS 5.1聲道音效轉為AAC 2聲道音效容量會減少5~10%
這樣轉出來單檔會略小於4G以利播放
那請問ZINWELL LM3718P那台可支援NTFS硬碟嗎?MKV支援的如何呢?
uwen wrote:
那請問ZINWELL...(恕刪)


看了一下ZINWELL這台規格~只能說:很好~很強大
不管window用的wma
youtube的flv
常見的rmvb
較不商業化的DivX;Xvid
主流的h264
到藍光的m2ts都ok
這才是40g組的救贖啊~~~

ps.ntfs是ok~藍光能播~代表h264@l4.1沒問題~dts音效也沒問題~也就是說~你可能完全不需處理就能觀賞!

ps2.所謂.mkv只是一種包裝方式~主流高清影片依然是用h264編碼~再加入音效檔~再加字幕檔~用mkv工具將其合而為一變成單獨一個mkv檔~~你可以用各式編碼的影片封裝成mkv檔~但mkv可不可以看~還是要看原本編碼方式你硬體支不支援解碼~~重點不在.mkv這個附檔名~而是影片資訊內的說明!

節錄範例:

General
Complete name : xxx
Format : Matroska.............(mkv的全名)
File size : 12.7 GiB
Duration : 2h 20mn
Overall bit rate : 13.0 Mbps
~~~~~~~~~~~~~~~~~~~~~~~~~~~
Video......................................(影像部分)
ID : 1
Format : AVC................(全名是mpeg4 avc h264~或稱h264.是標準mp4改良的編碼方式~畢竟是"先進"的~能讀mp4不表示一定支援h264)Format/Info : Advanced Video Codec
Format profile : High@L4.1..............(藍光預設等級~許多720p影片就已預轉@3.1或更低以增加相容~好比手機用的.mp4檔~就是標準mp4編碼@l1~~如果你真的遇到@5.1版的~哪就...慢慢玩吧)
Format settings, CABAC : Yes
Format settings, ReFrames : 5 frames
Muxing mode : Container profile=Unknown@4.1
Codec ID : V_MPEG4/ISO/AVC
Duration : 2h 20mn
Bit rate : 11.2 Mbps
Nominal bit rate : 11.5 Mbps
Width : 1 920 pixels
Height : 800 pixels................(很多電影為維持畫面比例~都會上下留黑邊)
Display aspect ratio : 2.40:1
Frame rate : 23.976 fps..............(很少看到24fps~是怎樣)
Resolution : 24 bits
Colorimetry : 4:2:0
Scan type : Progressive
Bits/(Pixel*Frame) : 0.305
Stream size : 11.0 GiB (86%)
~~~~~~~~~~~~~~~~~~~~~~~~~~~~~~~~~~~~~~~~~
Audio......................................(音效部分)
ID : 2
Format : DTS.....(主流音效~就是他還要讓我轉aac ~時間都花在她)
Format/Info : Digital Theater Systems
Codec ID : A_DTS
Duration : 2h 20mn
Bit rate mode : Constant
Bit rate : 1 510 Kbps
Channel(s) : 6 channels.....................(6聲道~我電視只有2個喇叭)
Channel positions : Front: L C R, Surround: L R, LFE
Sampling rate : 48.0 KHz
Resolution : 24 bits
Stream size : 1.48 GiB (12%)
Title : DTS-HD MA CORE 1536K
Language : English
~~~~~~~~~~~~~~~~~~~~~~~~~~~~~~~~~~~~~~~~
Menu #1..............................(這代表影片有章節可選)00:00:00.000 : en:Director's.Cut

Menu #2
00:00:00.000 : en:Extended.Cut chapter1
01:44:04.510 : en:Extended.Cut chapter2

上星期在COSTCO 買的 E420VL-tw Firmware1007
在大檔時中間也會卡住(1G) 看來USB的問題真不少..不知道新版本是否有修改..

不過很麻煩的是 .. Vizio 的 Firmware 不能自行更新, 像很多大廠都提供官網下載自行更新的功能..
真希望 Vizio 能提供自行下載更新的選項

其實真的有點搞不動為什麼不能支援 ntfs 很多 opensource 都有提供 NTFS 的讀取應該不難實作才是, 不然1080p 的檔案都不能放了...

另外有人知道最近版本的 Firmware 的版本是多少嗎? 讓沒更新的使用者也能請原廠幫忙更新?



請問一下 我有一部影片
有英/日 兩種聲道

如果放到電視裡撥放的話
他可以讓我選擇 英文或日文發音嗎

如果不能要怎樣才能呢

1頁 (共2頁) » 分享到

前往



廣告
廣告