要轉成什麼的檔案

Video
ID : 1
Format : AVC
Format/Info : Advanced Video Codec
Format profile : High@L4.1
Format settings, CABAC : Yes
Format settings, ReFrames : 4 frames
Codec ID : V_MPEG4/ISO/AVC
Duration : 2h 32mn
Bit rate : 11.0 Mbps
Width : 1 920 pixels
Height : 1 080 pixels
Display aspect ratio : 16:9
Frame rate : 23.976 fps
Color space : YUV
Chroma subsampling : 4:2:0
Bit depth : 8 bits
Scan type : Progressive
Bits/(Pixel*Frame) : 0.221
Stream size : 11.7 GiB (86%)
Title : The.Dark.Knight.2008
Writing library : x264 core 77 r1292M e381f6d
Encoding settings : cabac=1 / ref=4 / deblock=1:-3:-3 / analyse=0x3:0x113 / me=umh / subme=10 / psy=1 / psy_rd=1.1:0.3 / mixed_ref=1 / me_range=32 / chroma_me=1 / trellis=2 / 8x8dct=1 / cqm=2 / deadzone=21,11 / chroma_qp_offset=-2 / threads=6 / nr=0 / decimate=0 / mbaff=0 / constrained_intra=0 / bframes=3 / b_pyramid=0 / b_adapt=2 / b_bias=0 / direct=3 / wpredb=1 / keyint=250 / keyint_min=25 / scenecut=40 / rc_lookahead=60 / rc=crf / mbtree=1 / crf=18.0 / qcomp=0.60 / qpmin=10 / qpmax=51 / qpstep=4 / vbv_maxrate=55000 / vbv_bufsize=50000 / ip_ratio=1.40 / aq=1:1.00
Language : English

Audio
ID : 2
Format : DTS
Format/Info : Digital Theater Systems
Codec ID : A_DTS
Duration : 2h 32mn
Bit rate mode : Constant
Bit rate : 1 510 Kbps
Channel(s) : 6 channels
Channel positions : Front: L C R, Side: L R, LFE
Sampling rate : 48.0 KHz
Bit depth : 24 bits
Compression mode : Lossy
Stream size : 1.61 GiB (12%)
Title : DTS-5.1CH 1536K(From TrueHD5.1)
Language : English

這是影片的資訊

視訊 1MPG、MPEG、DAT、TS、TRP、TP、VOB、MP4、MOV、MKV、DivX、AVI、ASF、WMV、M4V
2可播放電影檔案的最大位元率:20 Mbps (每秒百萬位元)
3音效格式的位元率:32 kbps 至 320 kbps(MP3)
4支援的外部字幕格式:*.smi、*.srt、*.sub(MicroDVD、SubViewer 1.0/2.0)、*.ass*.ssa、*.txt (TMPlayer)、*.psb (PowerDivX)
5支援的內建字幕格式:僅限 XSUB (此為 DivX檔案中製作的字幕格式)、Text UTF- 8、SRT.ASS、SSA (此為 DivX-Plus HD 檔案中使用的
字幕格式)

這是播放器的格式

每次播放都說不支援的影音格式
有電影 有字幕 沒聲音
2012-08-13 23:44 #1

billy2588076 wrote:
VideoID ...(恕刪)

有影像有字幕
就是沒聲音
這不是已經擺明了撥放器不支持DTS音源
所以沒聲音
有啥疑問的

再看播放器支持的影像格式
聲音在轉碼時轉成AAC應該就可以讓播放器讀
應該也沒有啥好困惑的
限制級
您即將進入之討論頁 需滿18歲 方可瀏覽。
提醒:內容可能因過於寫實、驚悚而令人感到不舒服,是否繼續觀看?

根據「電腦網路內容分級處理辦法」修正條文第六條第三款規定,已於該限制級網頁,依台灣網站分級推廣基金會規定作標示。
評分
複製連結