請問影片Advanced Video Coding的轉檔問題

請教大大們
我看到某影片MediaInfo顯示

Format : Advanced Video Coding

Video : AVC
Format / Codec : Advanced Video Coding

Audio : AAC
Format : Advanced Audio Codec

----某影片原始資訊----
Format : MPEG-4
Format profile : Base Media / Version 2
Codec ID : mp42
File size : 732 MiB
Duration : 46mn 12s
Overall bit rate mode : Variable
Overall bit rate : 2 216 Kbps
Encoded date : UTC 2014-03-13 21:51:03
Tagged date : UTC 2014-03-13 21:51:03
gsst : 0
gstd : 2772856
gssd : B4A7D6523HH1394847875834958
gshh : r12---sn-u2x76n7d.googlevideo.com

Video
ID : 1
Format : AVC
Format/Info : Advanced Video Codec
Format profile : High@L3.1
Format settings, CABAC : Yes
Format settings, ReFrames : 1 frame
Codec ID : avc1
Codec ID/Info : Advanced Video Coding
Duration : 46mn 12s
Bit rate : 2 021 Kbps
Maximum bit rate : 4 793 Kbps
Width : 960 pixels
Height : 720 pixels
Display aspect ratio : 4:3
Frame rate mode : Constant
Frame rate : 29.970 fps
Color space : YUV
Chroma subsampling : 4:2:0
Bit depth : 8 bits
Scan type : Progressive
Bits/(Pixel*Frame) : 0.098
Stream size : 668 MiB (91%)
Tagged date : UTC 2014-03-13 21:55:04

Audio
ID : 2
Format : AAC
Format/Info : Advanced Audio Codec
Format profile : LC
Codec ID : 40
Duration : 46mn 12s
Bit rate mode : Variable
Bit rate : 192 Kbps
Maximum bit rate : 202 Kbps
Channel count : 2 channels
Channel positions : Front: L R
Sampling rate : 44.1 KHz
Compression mode : Lossy
Stream size : 63.5 MiB (9%)
Title : IsoMedia File Produced by Google, 5-11-2011
Encoded date : UTC 2014-03-13 21:53:18
Tagged date : UTC 2014-03-13 21:55:04



我習慣用威力導演
我輸出的檔案都是MPEG的碼(MediaInfo顯示)
我也找不到哪裡可以設定變更其它編碼
請問大大們該如何做才能在轉檔時採取這個編碼?
還是說哪些軟體可以採用上面那個編碼輸出?
在此先謝謝回覆幫助的大大

PS:
我剛剛威力導演選擇使用h264 AVC輸出
MediaInfo顯示

Format : MPEG-TS

Video : AVC
Format : Advanced Video Codec

Audio : AC-3
Format : Audio Coding 3

僅Video是AVC Advanced Video Codec
總體Format與Audio部份還是不同
還是沒找到辦法與那個影片採用影音都相同的編碼

----h264 AVC輸出原始資訊----
Format : MPEG-TS
File size : 1.19 GiB
Duration : 46mn 47s
Overall bit rate mode : Variable
Overall bit rate : 3 646 Kbps
Maximum Overall bit rate : 40.0 Mbps

Video
ID : 4113 (0x1011)
Menu ID : 1 (0x1)
Format : AVC
Format/Info : Advanced Video Codec
Format profile : Main@L3.0
Format settings, CABAC : Yes
Format settings, ReFrames : 2 frames
Codec ID : 27
Duration : 46mn 48s
Bit rate mode : Variable
Bit rate : 3 272 Kbps
Maximum bit rate : 5 000 Kbps
Width : 720 pixels
Height : 480 pixels
Display aspect ratio : 4:3
Frame rate : 29.970 fps
Standard : NTSC
Color space : YUV
Chroma subsampling : 4:2:0
Bit depth : 8 bits
Scan type : Interlaced
Scan order : Top Field First
Bits/(Pixel*Frame) : 0.316
Stream size : 1.07 GiB (90%)

Audio
ID : 4352 (0x1100)
Menu ID : 1 (0x1)
Format : AC-3
Format/Info : Audio Coding 3
Mode extension : CM (complete main)
Format settings, Endianness : Big
Codec ID : 129
Duration : 46mn 47s
Bit rate mode : Constant
Bit rate : 192 Kbps
Channel count : 2 channels
Channel positions : Front: L R
Sampling rate : 48.0 KHz
Bit depth : 16 bits
Compression mode : Lossy
Delay relative to video : 15ms
Stream size : 64.3 MiB (5%)


----MPEG的碼原始資訊----
Format : MPEG-PS
File size : 1.84 GiB
Duration : 46mn 47s
Overall bit rate mode : Variable
Overall bit rate : 5 624 Kbps

Video
ID : 224 (0xE0)
Format : MPEG Video
Format version : Version 2
Format profile : Main@Main
Format settings, BVOP : Yes
Format settings, Matrix : Default
Format settings, GOP : Variable
Duration : 46mn 47s
Bit rate mode : Variable
Bit rate : 5 320 Kbps
Maximum bit rate : 6 000 Kbps
Width : 704 pixels
Height : 480 pixels
Display aspect ratio : 4:3
Frame rate : 29.970 fps
Standard : NTSC
Color space : YUV
Chroma subsampling : 4:2:0
Bit depth : 8 bits
Scan type : Interlaced
Scan order : Top Field First
Compression mode : Lossy
Bits/(Pixel*Frame) : 0.525
Time code of first frame : 00:00:00:02
Time code source : Group of pictures header
Stream size : 1.74 GiB (95%)

Audio
ID : 192 (0xC0)
Format : MPEG Audio
Format version : Version 1
Format profile : Layer 2
Duration : 46mn 47s
Bit rate mode : Constant
Bit rate : 192 Kbps
Channel count : 2 channels
Sampling rate : 48.0 KHz
Compression mode : Lossy
Delay relative to video : -66ms
Stream size : 64.3 MiB (3%)

2014-03-15 10:28 #1
限制級
您即將進入之討論頁 需滿18歲 方可瀏覽。
提醒:內容可能因過於寫實、驚悚而令人感到不舒服,是否繼續觀看?

根據「電腦網路內容分級處理辦法」修正條文第六條第三款規定,已於該限制級網頁,依台灣網站分級推廣基金會規定作標示。
評分
複製連結