FFmpeg 詳細範例


kingdragon wrote:
FFmpeghttp...(恕刪)


請問我轉成MP4但是我的電視都無法撥放
出現影像解碼不支援、聲音解碼不支援
但是手機錄影的電視卻可以撥放

下面是手機影片媒體資訊,我該怎麼轉
請大大指導一下
------------------------------------------------------
General
Complete name : Z:\V_20150925_162641.mp4
Format : MPEG-4
Format profile : Base Media / Version 2
Codec ID : mp42
File size : 75.7 MiB
Duration : 31s 509ms
Overall bit rate : 20.2 Mbps
Encoded date : UTC 2015-09-25 08:27:14
Tagged date : UTC 2015-09-25 08:27:14

Video
ID : 1
Format : AVC
Format/Info : Advanced Video Codec
Format profile : Baseline@L4
Format settings, CABAC : No
Format settings, ReFrames : 1 frame
Format settings, GOP : M=1, N=30
Codec ID : avc1
Codec ID/Info : Advanced Video Coding
Duration : 31s 448ms
Bit rate : 20.0 Mbps
Width : 1 920 pixels
Height : 1 080 pixels
Display aspect ratio : 16:9
Frame rate mode : Variable
Frame rate : 30.000 fps
Minimum frame rate : 29.537 fps
Maximum frame rate : 30.519 fps
Color space : YUV
Chroma subsampling : 4:2:0
Bit depth : 8 bits
Scan type : Progressive
Bits/(Pixel*Frame) : 0.321
Stream size : 75.0 MiB (99%)
Title : VideoHandle
Language : English
Encoded date : UTC 2015-09-25 08:27:14
Tagged date : UTC 2015-09-25 08:27:14
mdhd_Duration : 31448

Audio
ID : 2
Format : AAC
Format/Info : Advanced Audio Codec
Format profile : LC
Codec ID : 40
Duration : 31s 509ms
Source duration : 31s 533ms
Source_Duration_FirstFrame : 24ms
Bit rate mode : Constant
Bit rate : 96.0 Kbps
Channel(s) : 2 channels
Channel positions : Front: L R
Sampling rate : 48.0 KHz
Compression mode : Lossy
Stream size : 370 KiB (0%)
Source stream size : 370 KiB (0%)
Title : SoundHandle
Language : English
Encoded date : UTC 2015-09-25 08:27:14
Tagged date : UTC 2015-09-25 08:27:14
mdhd_Duration : 31509


MAGICER5 wrote:
請問我轉成MP4但...(恕刪)

命令:
ffmpeg -i input.mkv -c:v libx264 -crf 18 -preset:v slower -profile:v main -refs 4 -bf 5 -c:a libfdk_aac -ac 2 -vbr 4 output.mp4

或是: -profile:v baseline -refs 4

詳細請參考前兩個連結
限制級
您即將進入之討論頁 需滿18歲 方可瀏覽。
提醒:內容可能因過於寫實、驚悚而令人感到不舒服,是否繼續觀看?

根據「電腦網路內容分級處理辦法」修正條文第六條第三款規定,已於該限制級網頁,依台灣網站分級推廣基金會規定作標示。
評分
複製連結