[已解決] 威力導演19 開啟此媒體檔案時發生錯誤

測試過 威力導演18威力導演19 都發生相同問題!
導入影片時會發生"開啟此媒體檔案時發生錯誤"的狀況~
 
[已解決] 威力導演19 開啟此媒體檔案時發生錯誤
 
結果只能導入影片,沒有音軌...
 
很麻煩的...我得另外用工具從影片中抽出音軌~
再用工具轉成MP3後,最後才再導入和影片一起編輯!
 
有嘗試安裝 K-Lite Mega Codec Pack,結果依舊!
但我覺得不是這個問題...
 
因為2015年問世的 會聲會影X8 沒有這樣的問題!
而經友站版友協測,我自己再實測後~
確定舊版本 威力導演17 可以順利載入有音軌的影片...
 
[已解決] 威力導演19 開啟此媒體檔案時發生錯誤
 
想請問,有人知道這是什麼原因和如何解決嗎?
 
以下我提供我錄製測試用的影片上傳到 MEGA...
如需要原始影片進行測試的版友,可自行下載!
 
https://mega.nz/file/wdgCmJZT#94HDxzkvoIBH86QG2-urPH0SS8fr9jT3YAa6H86HqJg
 
這是傻瓜數位相機 Sony DSC-HX30V 錄製的影片,副檔名是 MTS...
影片檔案資訊如下:
 
General
ID : 0 (0x0)
Complete name : D:\Temp\00001.MTS
Format : BDAV
Format/Info : Blu-ray Video
File size : 112 MiB
Duration : 35 s 450 ms
Overall bit rate mode : Variable
Overall bit rate : 26.5 Mb/s
Maximum Overall bit rate : 28.0 Mb/s
Recorded date : 2021-02-01 18:31:17+09:00
Writing application : Sony DSC-HX30V

Video
ID : 4113 (0x1011)
Menu ID : 1 (0x1)
Format : AVC
Format/Info : Advanced Video Codec
Format profile : [email protected]
Format settings : CABAC / 2 Ref Frames
Format settings, CABAC : Yes
Format settings, Reference : 2 frames
Format settings, GOP : M=1, N=15
Codec ID : 27
Duration : 35 s 535 ms
Bit rate mode : Variable
Bit rate : 25.2 Mb/s
Maximum bit rate : 26.0 Mb/s
Width : 1 920 pixels
Height : 1 080 pixels
Display aspect ratio : 16:9
Frame rate : 59.940 (60000/1001) FPS
Color space : YUV
Chroma subsampling : 4:2:0
Bit depth : 8 bits
Scan type : Progressive
Bits/(Pixel*Frame) : 0.202
Stream size : 107 MiB (95%)
IrisFNumber : 3.200000

Audio
ID : 4352 (0x1100)
Menu ID : 1 (0x1)
Format : AC-3
Format/Info : Audio Coding 3
Commercial name : Dolby Digital
Codec ID : 129
Duration : 35 s 552 ms
Bit rate mode : Constant
Bit rate : 256 kb/s
Channel(s) : 2 channels
Channel layout : L R
Sampling rate : 48.0 kHz
Frame rate : 31.250 FPS (1536 SPF)
Compression mode : Lossy
Stream size : 1.08 MiB (1%)
Service kind : Complete Main

Text
ID : 4608 (0x1200)
Menu ID : 1 (0x1)
Format : PGS
Codec ID : 144
Duration : 34 s 970 ms
 
 
我懷疑是否 威力導演18威力導演19 不支援 AC-3 音軌?
又或者跟電腦硬體規格關?例如CPU或顯示卡太老舊?!
 
CPU Intel Core i5-2500
VGA NVIDIA GeForce GTX 550 Ti
 
由於太老舊,所有硬體皆無新驅動程式可更新...
故如是驅動程式老舊所致,那就真的無解了!
 
要用 威力導演17 舊版也不是不行~
只是能順利用新版的話,用新版當然是比較好的...
⚠ 歡迎理性討論,若想打嘴砲,恕我不奉陪,請善用黑名單,你若不加我,那就是我加你...
我是用威力導演19, WIN10 20H2 , 可以很順利的把你的檔案匯入呀, 都沒什麼問題哦, 會不會是你電腦的問題?

以下附上我在電腦上匯入你的影片檔的截圖

yuemlai wrote:
我是用威力導演19,(恕刪)


感謝yuemlai兄協測...

除硬體外,作業系統會是因素嗎?
新版威力導演並非不支援Windows7...

奇怪了!?


=============== 更新 ===============

我在 VMware Workstation Pro 上的 Windows 10 Enterprise LTSC 2019 測試!
結果一樣......



所以,覺得很可能是我的顯示卡太老舊所致!
⚠ 歡迎理性討論,若想打嘴砲,恕我不奉陪,請善用黑名單,你若不加我,那就是我加你...
沙羅季曼 wrote:
感謝yuemlai兄(恕刪)


windows 10 威力導演17 沒有問題
别被我選中..為何又選中..
ahwaiyuen98 wrote:
windows 10(恕刪)


感謝ahwaiyuen98兄協測!
威力導演17沒問題是已經確定的...
⚠ 歡迎理性討論,若想打嘴砲,恕我不奉陪,請善用黑名單,你若不加我,那就是我加你...
也有可能是硬體太舊了!那您可能要再另找一台比較好的電腦再試試!祝您可以順利成功!
yuemlai wrote:
也有可能是硬體太舊了(恕刪)


謝謝!

2015年問世的 會聲會影X8 沒有這樣的問題!
2018年問世的 威力導演17 也沒有這樣的問題!

雖懷疑是硬體老舊所致...
但覺得這樣的臆測好像也不太能成立!

因為AC3音軌並不,是什麼很先進的格式...

而在相同舊硬體下~
AC3音軌可以撥放,可以被 會聲會影X8 編輯!
也可以被 威力導演17 編輯~
卻不能被 威力導演18~19 編輯!

所以要說是硬體不支援也很怪~
如果硬體不支援,那就是都不支援!
不會因軟體版本新舊而出現支援與不支援的不同結果...

那麼結論可能就是新版 威力導演 + 舊硬體 = 不支援AC3音軌...
即便新版 威力導演 是支援 AC3 格式的...
⚠ 歡迎理性討論,若想打嘴砲,恕我不奉陪,請善用黑名單,你若不加我,那就是我加你...
沙羅季曼 wrote:
測試過 威力導演18...(恕刪)

官網格式及裝置支援有寫,音訊格式匯入dolby digital僅適用win8/8.1/10。請參考。
sbr.harry wrote:
官網格式及裝置支援有(恕刪)


天哪.........

所以前面在 VM 上的 Windows 10 Enterprise LTSC 2019 測試失敗...
應該單純是虛擬作業系統的關係了...

感謝sbr.harry兄!!
⚠ 歡迎理性討論,若想打嘴砲,恕我不奉陪,請善用黑名單,你若不加我,那就是我加你...
老問題做個新報告...

5月時主機意外陣亡!
直至9月中旬在EVGA排到正常價格顯示卡...
所以如願組了新主機~

新規格硬體用不了Windows 7...
所以只好安裝Windows 10並習慣它!
而這老問題我順勢再次檢視,結果錯誤依舊~

所以,問題很可能出在作業系統:Windows 10 Enterprise LTSC 2019

新主機硬體規格:
Intel 第11代 Core i5-11400 6核12緒 處理器《2.6Ghz/LGA1200》
ASUS 華碩 ROG STRIX B560-F GAMING WIFI LGA1200主機板
美光 Crucial Ballistix 16G*2 DDR4-3600(低延遲CL 16-18-18)美光超頻E-Die 桌上型記憶體
Micron 美光 Crucial P5 Plus 500G M.2 PCIe SSD固態硬碟 (讀:6600M/寫:4000M)
EVGA GeForce RTX 3060 Ti XC GAMING, 08G-P5-3663-KL, 8GB GDDR6, Dual-Fan, Metal Backplate, LHR
EVGA 750W GT /金牌/全模組/全日系/DC-DC/ECO風扇停轉/7年保 電源長度:15+2

BIOS已更新最新1017

這問題對我影響其實並不大~
因為很少會使用傻瓜數位相機 Sony DSC-HX30V 錄製影片來編輯!
大多用手機錄影...

只是需要錄較清晰影片時~
仍會動用傻瓜數位相機 Sony DSC-HX30V...

例如這新主機組好時遭遇上網會當機的問題!
多次錄影就是使用傻瓜數位相機 Sony DSC-HX30V...
好在順利更換主機板將問題解決!
沒有需要拿這些影片出來編輯佐證...

威力導演 跟 Dolby Digital 有仇?!

============== 更新補充報告 ==============

用虛擬作業系統測試一般版Windows 10(21H1)...
確定可以載入Dolby Digital音軌的影片!!



看來 Windows 10 Enterprise LTSC 2019 不是 威力導演 所定義的 Windows 10...

============== 2021/11/27 更新報告 ==============

測試 Windows 10 Enterprise LTSC 2021 結果一樣!
這真是太神奇了傑克~
是啊,珍妮佛......

由於 Bandicam 以 DirectX 錄影遊戲也發生無法擷取音效的問題~
又是音效.........

日前不得已只好捨棄 LTSC 版~
改安裝 Windows 10 Business x64 21H2 19044.1288 試用!

果不其然,所有問題都未再發生~
SO......LTSC 版到底怎麼了?!
⚠ 歡迎理性討論,若想打嘴砲,恕我不奉陪,請善用黑名單,你若不加我,那就是我加你...
關閉廣告

今日熱門文章 網友點擊推薦!

文章分享
評分
複製連結