[求助] HD600A 部分檔案不能觀看

大家好

我上週入手HD600A,不知道該開心還是該難過
本來是要買300A的,結果賣家推薦可以買600A比較支援新的音響
以下是我目前整理的幾個問題
1.播放部分的RMVB, AVI, WMV檔案會有問題,海賊王的RMVB我只要一播放,前頭會出現椰子樹的照片(主題曲剛開始會有椰子樹)就定格了,然後大概顯示不到一秒,螢幕就轉黑,音樂繼續跑著,這時候無論我轉遙控器哪個功能,他都不會接受遙控,只有開關鍵可以接受,只好關機,再重新開機,但是如果在點那幾個海賊王的RMVB檔案,還是一樣的情況發生; 播放AVI或是WMV的時候,有部分的檔案點選後,他會顯示未知的檔案,然後就開始顯示一堆亂碼賽克,整個畫面都是馬賽克(綠綠的); 有的檔案甚至在播放的時候,左上方就直接顯示一個禁止的符號,無法按播放鍵播放
2.無線上網的部份,我買了d-link的dongle,支援度應該是很高才對,裝上600A之後,怎麼都抓不到無限的router,我的router是Buffaloes的,應該通用性也很高才對,無線的部份,家裡的小比電都可以上網,沒有問題
後來上網爬文,從原本的1.17韌體更新到1.29版
發現上面的問題都無法解決
請問大家的600A也會這樣嗎


文章關鍵字
kenfifa0531 wrote:
無線上網的部份...(恕刪)

他的無線網卡很挑的, 聽說使用 realtek 系列的比較不會有問題.

-> 02/27 achic: USB WiFI, 請找使用Realtek RTL8191/8192的USB網卡.
-> 03/01 shihcy: 我是用 D-Link (DWA-131) Wireless N NANO USB 無線網路卡.

asczz:
台灣買得到相容的無線網卡

D-Link DWA-130 N USB
CG-WLUSB300N USB -->熊熊推薦
BELKIN 802.11n USB (F5D8053)

說明:
COREGA CG-WLUSB300N 可以上去 300mbps, 價格約$800~ $1000, 幾乎沒什麼人在賣.
CERIO UW-200NU2 理論上, 也上的去 300mbps, 價格約$500.


civic888:

使用8192SU晶片好像不多,有CERIO UW-200NU2 及I-BT ZW-N290
是否Realtek在WLAN技術比起國際網通晶片大廠來說有些許落後
所以各大網通廠推出內建8192SU晶片無線網卡並不多

說明: ZW-N290 802.11N(300Mpbs), 價格約$500.



1tac:

Cerio UW-200NU2 這隻是用瑞昱Realtek 8192SU的晶片

ASUS USB-N13 跟 D-Link DWA-140 用的都是雷凌 Ralink 的晶片




roch123:

D-link DWA-131如果用非Realtek晶片就可能無法相容於播放器,
MP430使用的Realtek 1073晶片,支援USB無線網路卡晶片型號為:
Realtek RTL8187 (b/g)、 RTL8191su (b/g/n) 、RTL8709 (b/g/n) 晶片

您可在Yahoo或露天拍賣,搜尋"1073 網卡"就可以買到相容的USB網卡~

結論: 查完 yahoo 只看到在賣 i-bt 的,
查 pchome, 可以看到比較多, 也有在賣大陸的,


ps: 你應該請賣的人,幫你訂 wifi 的版本, 就內建好網卡了, 而且也會比較不占空間.
大大

那我這個dongle不就要留著了嗎
因為也沒壞,應該是不能退貨

雷凌科技(3534) - Ralink corp. 出的晶片, 所做出來的網卡也可以被支援了,

中文討論區, 有人實作出來: 为播放器添加ralink系列网卡驱动
http://www.hdpfans.com/thread-14052-1-1.html


英文討論區, 原文出處: Adding support for RaLink USB Wifi adapters..
http://www.patriotmemory.com/forums/showthread.php?4543-Adding-support-for-RaLink-USB-Wifi-adapters..


使用方法
複製wpa_supplicant驅動和配置文件到 /usr/local/etc (/rt3370/rt3370sta.ko更改為你的驅動文件路徑)
cd /tmp/usbmounts/sda1/
cp /rt3370/rt3370sta.ko /usr/local/etc/
mkdir /usr/local/etc/ralink
cp /rt3370/RT2870STA.dat /usr/local/etc/ralink

cp /rt3370/wpa_cli /usr/local/etc/
cp /rt3370/wpa_supplicant /usr/local/etc/

綁定wpa_supplicant到修改過的wpa_supplicant
mount --bind /usr/local/etc/wpa_cli /usr/local/bin/wpa_cli
mount --bind /usr/local/etc/wpa_supplicant /usr/local/bin/wpa_supplicant

配置啟動文件啟動時加載網卡驅動
echo "insmod /usr/local/etc/rt3370sta.ko" >> /usr/local/etc/rcS


rt2570 (RT2500USB(RT2571/RT2572))
rt2870 (RT2870USB(RT2870/RT2770))
rt3070 (RT8070/RT3070USB(RT307x))
rt3572 (RT3572USB)
rt73 (RT2501USB(RT73:RT2571W/RT2573/RT2671))


kenfifa0531 wrote:
大家好我上週入手HD..
1.播放部分的RMVB, AVI, WMV檔案會有問題,海賊王的RMVB我只要一播放,前頭會出現椰子樹的照片(主題曲剛開始會有椰子樹)就定格了,然後大概顯示不到一秒,螢幕就轉黑,音樂繼續跑著,這時候無論我轉遙控器哪個功能,他都不會接受遙控,只有開關鍵可以接受,只好關機,再重新開機,但是如果在點那幾個海賊王的RMVB檔案,還是一樣的情況發生; 播放AVI或是WMV的時候,有部分的檔案點選後,他會顯示未知的檔案,然後就開始顯示一堆亂碼賽克,整個畫面都是馬賽克(綠綠的); 有的檔案甚至在播放的時候,左上方就直接顯示一個禁止的符號,無法按播放鍵播放

.(恕刪)


您好,不知道您的第一個問題解決了沒?我也是這兩天剛入手HD600A,一開始也發現播放RMVB,AVI的問題,後來我把這些原本播放有問題的RMVB、AVI檔案複製到另一顆用HD600A格式化過的硬碟就可以正常播放了,可以參考看看。
㊣三重YA騎團㊣-精神同在組
看來HD600確實還有些待改善的空間。
我的HD600A一直追隨著原廠及MAX兄發佈的軔體進行昇級,但最近原本可以使用的WD 3.5吋2TB硬碟竟然發生抓不到的情形,而且只要接上這顆硬碟就會當機;同一顆硬碟用在HD300A上則完全沒有問題,不知道是哪兒出了問題,害我苦心整理出來的海報牆面完全派不上用場,真洩氣!
另外,已向海美迪原廠反映HD600A字型有邊緣鋸齒的問題,也沒有獲得回映,讓我覺得有些失望。
好,我回去再用HD600A來格式化硬碟看看
這樣所有的片片都要重新儲存了...
確實如此,我DOWNLOAD的AVI 存放在500G之2.5吋隨身碟,出現聲音不同步(太慢)的訊息,畫面亂成一團無法撥放,以幾個檔案甚至一打開就DOWN機重開,後來我COPY到另一顆 USB 1T 3.5吋的外接USB硬碟,竟然可以正常撥放,實在也搞不懂,但500G其他的MKV 甚至 AVI 等也都可以撥放,不解????
詳細資料如下
Format : AVI
Format/Info : Audio Video Interleave
Format profile : OpenDML
File size : 4.36 GiB
Duration : 1h 55mn
Overall bit rate : 5 398 Kbps
Writing application : MEncoder SVN-r30881(20100311-gcc4.3.3)
Writing library : MPlayer
Video #0
ID : 0
Format : AVC
Format/Info : Advanced Video Codec
Format profile : [email protected]
Format settings, CABAC : No
Format settings, ReFrames : 1 frame
Codec ID : avc1
Duration : 1h 55mn
Bit rate : 5 195 Kbps
Width : 1 280 pixels
Height : 720 pixels
Display aspect ratio : 16:9
Frame rate : 29.970 fps
Color space : YUV
Chroma subsampling : 4:2:0
Bit depth : 8 bits
Scan type : Progressive
Bits/(Pixel*Frame) : 0.188
Stream size : 4.20 GiB (96%)
Writing library : x264 core 80 r1378+57 6f6b50a
Encoding settings : cabac=0 / ref=1 / deblock=1:0:0 / analyse=0x3:0x113 / me=esa / subme=7 / psy=1 / psy_rd=1.0:0.0 / mixed_ref=0 / me_range=16 / chroma_me=1 / trellis=0 / 8x8dct=1 / cqm=0 / deadzone=21,11 / fast_pskip=1 / chroma_qp_offset=-2 / threads=12 / sliced_threads=0 / nr=0 / decimate=1 / mbaff=0 / constrained_intra=0 / bframes=0 / wpredp=2 / keyint=300 / keyint_min=25 / scenecut=40 / rc_lookahead=40 / rc=2pass / mbtree=1 / bitrate=5195 / ratetol=1.0 / qcomp=0.60 / qpmin=10 / qpmax=51 / qpstep=4 / cplxblur=20.0 / qblur=0.5 / ip_ratio=1.40 / aq=1:1.00
Audio #1
ID : 1
Format : MPEG Audio
Format version : Version 1
Format profile : Layer 3
Mode : Joint stereo
Mode extension : MS Stereo
Codec ID : 55
Codec ID/Hint : MP3
Duration : 1h 55mn
Bit rate mode : Constant
Bit rate : 192 Kbps
Channel(s) : 2 channels
Sampling rate : 48.0 KHz
Compression mode : Lossy
Stream size : 159 MiB (4%)
Alignment : Aligned on interleaves
Interleave, duration : 24 ms (0.72 video frame)
Interleave, preload duration : 504 ms
Writing library : LAME3.98
文章分享
評分
評分
複製連結

今日熱門文章 網友點擊推薦!